#TITLE:Wait!;
#SUBTITLE:UmJammerLammy;
#ARTIST:松浦雅也;
#TITLETRANSLIT:;
#SUBTITLETRANSLIT:;
#ARTISTTRANSLIT:Masaya Matsuura;
#CREDIT:;
#BANNER:Wait!.jpg;
#BACKGROUND:Wait!-bg.jpg;
#LYRICSPATH:;
#CDTITLE:vospi.png;
#MUSIC:Wait!.mp3;
#OFFSET:-0.761;
#SAMPLESTART:0.996;
#SAMPLELENGTH:13.100;
#SELECTABLE:YES;
#BPMS:0.000=120.000,32.000=179.000;
#STOPS:;
#BGCHANGES:;
// cache tags:
#FIRSTBEAT:0.000;
#LASTBEAT:69.063;
#SONGFILENAME:Songs/Music V.I.P ^_^/Wait! (Vospi)/Wait!.sm;
#HASMUSIC:1;
#HASBANNER:1;
#MUSICLENGTH:34.351;
// end cache tags

//---------------dance-single - ----------------
#NOTES:
     dance-single:
     :
     Hard:
     10:
     0.902,0.930,1.000,0.291,0.990,171.000,36.000,10.000,0.000,0.000:
0101
0000
1010
0010
0101
0000
0110
0000
2000
0000
3010
0000
0001
0000
0000
0000
,
1001
0000
1100
0100
0011
0000
0110
0000
2000
0000
3100
0000
0010
0000
0000
0000
,
1001
0000
1010
0100
1010
0000
1001
0000
1020
0000
1030
0001
1010
0000
1100
0000
,
0210
0000
0010
0000
0010
0300
1001
0010
1100
0001
0100
0010
0100
0010
1000
0100
,
0011
0000
0110
0010
0101
0000
0110
0000
0100
0000
0110
0000
0101
0000
0100
0000
,
1001
0000
1100
0100
1010
0000
1100
0000
1000
0000
1010
0000
1001
0000
1000
0000
,
0110
0000
1010
0010
0101
0000
0110
0000
1020
0000
1030
0001
0010
0000
0220
0000
,
0000
0330
0000
0000
0000
0000
0000
0000
,
0001
0010
0100
1000
0100
0010
0100
0010
0001
0010
0100
0010
0100
1000
0010
0001
,
0010
0100
1000
0100
0010
1000
0100
1000
0001
0100
1000
0100
0010
1000
0100
0010
,
0200
0000
0300
0000
0100
0010
0100
1000
0010
0100
1000
0001
0010
0001
0010
1000
,
0010
0100
1000
0001
0010
0100
1000
0001
0010
0100
1000
0001
0010
0100
1000
0100
,
0020
0000
0000
0030
0100
0001
0010
0100
1000
0001
0100
0010
0100
0001
0100
0010
,
0100
0010
0100
0010
1000
0100
1000
0100
0010
0001
0010
0001
0100
0010
0100
0010
,
0001
1000
0100
0010
0002
0000
0000
0000
0003
0000
0000
0000
0000
0000
0000
0000
,
0000
0000
0000
0000
0000
0000
0000
0000
0000
0000
0000
0000
0000
0000
0000
0000
0000
0000
0000
0000
0000
0000
0000
0000
0000
0000
0000
0000
0000
0000
0010
0000
0000
0000
0000
0000
0000
0000
0000
0000
0000
0000
0000
0000
0000
0000
0000
0000
0000
0000
0000
0000
0000
0000
0000
0000
0000
0000
0000
0000
0000
0000
0000
0000
0000
0000
0000
0000
0001
0000
0000
0000
0000
0000
0000
0000
0000
0000
0000
0000
0000
0000
0000
0000
0000
0000
0000
0000
0000
0000
0000
0000
0000
0000
0000
0000
0000
0000
0000
0000
0000
0000
0000
0000
0000
0000
0000
0000
0100
0000
0000
0000
0000
0000
0000
0000
0000
0000
0000
0000
0000
0000
0000
0000
0000
0000
0000
0000
0000
0000
0000
0000
0000
0000
0000
0000
0000
0000
0000
0000
0000
0000
0000
0000
0000
0000
0000
0000
0000
0000
0000
0000
0000
0000
0000
0000
0000
0000
0000
0000
0000
0000
0000
0000
0000
0000
0000
0000
0000
0000
0000
0000
0000
0000
0000
0000
0000
0100
0000
0000
0000
0000
0000
0000
0000
0000
0000
0000
0000
0000
0000
0000
,
0000
0000
0000
0000
0000
0000
0000
0010
0000
0000
0000
0000
0000
0000
0000
0000
0000
0000
0000
1000
0000
0000
0000
0000
0000
0000
0000
0000
0000
0000
0000
0000
0000
0000
0000
0000
0000
0000
0000
0000
0000
0000
0000
0000
1000
0000
0000
0000
0000
0000
0000
0000
0000
0000
0000
0000
0000
0000
0000
0000
0000
0000
0000
0100
,
0000
0000
0000
0000
0000
0000
0000
0000
0000
0000
0000
0000
0000
0000
0000
0000
0000
0010
0000
0000
0000
0000
0000
0000
0000
0000
0000
0000
0000
0000
0000
0000
0000
0000
0000
0000
0000
0000
0000
0000
0000
0000
0000
0000
0000
0000
0000
0000
0000
0000
0000
0000
0000
0000
0000
0000
0000
0000
0000
0000
0000
0000
0000
0000
;
